+ indiadiabetesresearch.com »  :::: Bollywood Zone » Indian PC Videos
|- Dhadkan (2000) Hindi 1080p UntoucheD HDTv {Music Video} ~ Special26


Electroncs Sale

Dhadkan (2000) Hindi 1080p UntoucheD HDTv {Music Video} ~ Special26

0 Members and 1 Guest are viewing this topic.

December 07, 2018, 08:25:50 PM
  • Conqueror
  • Legend Member
  • *****
  • Topic Author
  • Thank You: 5179
  • Reputation: 1080
  • Activity:
    100%
  • Country: np
  • Posts: 1808
  • Topics: 1546
  • Join Date: Jul 2016
  • Love Forever !!
Dhadkan (2000) Hindi 1080p UntoucheD HDTv {Music Video} ~ Special26



 :info:
Format                         : Matroska
Format version                 : Version 4
File size                      : 1.08 GB
Overall bit rate mode          : Variable
Overall bit rate               : 3 573 kb/s


Video
ID                             : 1
Format                         : AVC
Format/Info                    : Advanced Video Codec
Format profile                 : [email protected]
Format settings                : CABAC / 4 Ref Frames
Format settings, CABAC         : Yes
Format settings, ReFrames      : 4 frames
Codec ID                       : V_MPEG4/ISO/AVC
Bit rate mode                  : Variable
Bit rate                       : 3 500 kb/s
Width                          : 1 920 pixels
Height                         : 1 080 pixels
Display aspect ratio           : 16:9
Frame rate mode                : Constant
Frame rate                     : 25.000 FPS
Standard                       : Component
Color space                    : YUV
Chroma subsampling             : 4:2:0
Bit depth                      : 8 bits
Scan type                      : Progressive
Bits/(Pixel*Frame)             : 0.068
Stream size                    : 190 MiB (97%)
Default                        : Yes
Forced                         : No
Color range                    : Limited
Color primaries                : BT.709
Transfer characteristics       : BT.709
Matrix coefficients            : BT.709


Audio
ID                             : 2
Format                         : AAC LC
Format/Info                    : Advanced Audio Codec
Codec ID                       : A_AAC-2
Bit rate                       : 93.4 kb/s
Channel(s)                     : 2 channels
Channel layout                 : L R
Sampling rate                  : 48.0 kHz
Frame rate                     : 46.875 FPS (1024 SPF)
Compression mode               : Lossy
Delay relative to video        : 11 ms
Stream size                    : 5.11 MiB (3%)
Default                        : Yes
Forced                         : No



 :ss:





























 :download:

Share this topic on FacebookShare this topic on GoogleShare this topic on MySpaceShare this topic on TwitterShare this topic on Yahoo

« Last Edit: January 11, 2019, 10:35:00 AM by Special26 »


Thanks given by:


January 10, 2019, 08:22:39 PM
Reply #1
  • Elite Member
  • ***
  • Thank You: 42
  • Reputation: 10
  • Activity:
    24%
  • Posts: 475
  • Topics: 38
  • Join Date: Jul 2012
  • ShareSpark Member
bro plz update this album link.it's rare i need it:thank:

January 11, 2019, 10:37:12 AM
Reply #2
  • Conqueror
  • Legend Member
  • *****
  • Topic Author
  • Thank You: 5179
  • Reputation: 1080
  • Activity:
    100%
  • Country: np
  • Posts: 1808
  • Topics: 1546
  • Join Date: Jul 2016
  • Love Forever !!
bro plz update this album link.it's rare i need it:thank:



@janapritam007Link Updated !!           :congo:

January 11, 2019, 07:53:47 PM
Reply #3
  • Elite Member
  • ***
  • Thank You: 42
  • Reputation: 10
  • Activity:
    24%
  • Posts: 475
  • Topics: 38
  • Join Date: Jul 2012
  • ShareSpark Member

Tags:
 

Related Topics

  Subject / Started by Replies Last post
2 Replies
1493 Views
Last post March 27, 2018, 12:25:38 AM
by bikash0096
2 Replies
656 Views
Last post November 29, 2018, 06:14:33 AM
by gprem54
1 Replies
474 Views
Last post January 07, 2019, 11:55:55 PM
by MayurSuccess
0 Replies
348 Views
Last post December 05, 2018, 08:46:54 AM
by Special26
0 Replies
452 Views
Last post December 06, 2018, 07:23:45 PM
by Special26




Back to top