+ indiadiabetesresearch.com »  :::: Dubbed Zone (Dubbed English in Hindi) » English Movies Dubbed in Hindi
|- Aquaman 2018 V2 720p HDCAM x264 Dual Audio [Hindi - English] [MW]


TV and Appliances

Aquaman 2018 V2 720p HDCAM x264 Dual Audio [Hindi - English] [MW]

0 Members and 1 Guest are viewing this topic.

December 18, 2018, 02:10:06 PM
  • ***************
  • Conqueror
  • Legend Member
  • *****
  • Topic Author
  • Thank You: 1967
  • Reputation: 566
  • Activity:
    100%
  • Country: pk
  • Posts: 2159
  • Topics: 1438
  • Join Date: Mar 2015
  • =$ Success Never Ends $=
Aquaman 2018 V2 720p HDCAM x264 Dual Audio [Hindi - English] [MW]









Quote

General
Format : Matroska
Format version : Version 4 / Version 2
File size : 1.27 GiB
Duration : 2 h 12 min
Overall bit rate : 1 364 kb/s

Video
ID : 1
Format : AVC
Format/Info : Advanced Video Codec
Format profile : [email protected]
Format settings : CABAC / 4 Ref Frames
Format settings, CABAC : Yes
Format settings, RefFrames : 4 frames
Codec ID : V_MPEG4/ISO/AVC
Duration : 2 h 12 min
Bit rate : 1 100 kb/s
Width : 1 280 pixels
Height : 704 pixels
Display aspect ratio : 16:9
Frame rate mode : Constant
Frame rate : 29.970 (30000/1001) FPS
Color space : YUV
Chroma subsampling : 4:2:0
Bit depth : 8 bits
Scan type : Progressive
Bits/(Pixel*Frame) : 0.041
Stream size : 1.02 GiB (81%)
Writing library : x264 core 155 r2901 7d0ff22
Default : Yes
Forced : No

Audio #1
ID : 2
Format : AAC
Format/Info : Advanced Audio Codec
Format profile : LC
Codec ID : A_AAC-2
Duration : 2 h 12 min
Bit rate : 128 kb/s
Channel(s) : 2 channels
Channel positions : Front: L R
Sampling rate : 48.0 kHz
Frame rate : 46.875 FPS (1024 SPF)
Compression mode : Lossy
Stream size : 122 MiB (9%)
Language : Hindi
Default : Yes
Forced : No

Audio #2
ID : 3
Format : AAC
Format/Info : Advanced Audio Codec
Format profile : LC
Codec ID : A_AAC-2
Duration : 2 h 12 min
Bit rate : 128 kb/s
Channel(s) : 2 channels
Channel positions : Front: L R
Sampling rate : 48.0 kHz
Frame rate : 46.875 FPS (1024 SPF)
Compression mode : Lossy
Stream size : 122 MiB (9%)
Language : English
Default : No
Forced : No



 :ss:














 :download:














Share this topic on FacebookShare this topic on GoogleShare this topic on MySpaceShare this topic on TwitterShare this topic on Yahoo




Tags:
 

Related Topics

  Subject / Started by Replies Last post
0 Replies
258 Views
Last post December 15, 2018, 12:55:08 PM
by shahzaibjaan
0 Replies
379 Views
Last post December 16, 2018, 03:19:46 PM
by im2good
0 Replies
1160 Views
Last post December 18, 2018, 11:40:29 AM
by RoBi007
0 Replies
277 Views
Last post December 22, 2018, 03:32:48 PM
by shahzaibjaan
0 Replies
518 Views
Last post December 22, 2018, 03:48:01 PM
by shahzaibjaan




Back to top