+ indiadiabetesresearch.com »  :::: Bollywood Zone » Bollywood Movies (Original Rips) » High Resolution Movies
|- Laaga Chunari Mein Daag (2007) 1080p AMZN WEB-DL DDP 5.1 ESub - DTOne


10% SBI and 10% Discount

Laaga Chunari Mein Daag (2007) 1080p AMZN WEB-DL DDP 5.1 ESub - DTOne

0 Members and 1 Guest are viewing this topic.

January 12, 2019, 09:17:14 AM
  • Conqueror
  • Legend Member
  • *****
  • Topic Author
  • Thank You: 5179
  • Reputation: 1080
  • Activity:
    100%
  • Country: np
  • Posts: 1808
  • Topics: 1546
  • Join Date: Jul 2016
  • Love Forever !!
Laaga Chunari Mein Daag (2007) 1080p AMZN WEB-DL DDP 5.1 ESub - DTOne







 :info:
Format                                   : Matroska
Format version                           : Version 4 / Version 2
File size                                : 6.44 GiB
Duration                                 : 2 h 19 min
Overall bit rate                         : 6 595 kb/s


Video
ID                                       : 1
Format                                   : AVC
Format/Info                              : Advanced Video Codec
Format profile                           : [email protected]
Format settings                          : CABAC / 4 Ref Frames
Format settings, CABAC                   : Yes
Format settings, RefFrames               : 4 frames
Codec ID                                 : V_MPEG4/ISO/AVC
Duration                                 : 2 h 19 min
Bit rate                                 : 5 953 kb/s
Width                                    : 1 920 pixels
Height                                   : 1 080 pixels
Display aspect ratio                     : 16:9
Frame rate mode                          : Constant
Frame rate                               : 23.976 (24000/1001) FPS
Color space                              : YUV
Chroma subsampling                       : 4:2:0
Bit depth                                : 8 bits
Scan type                                : Progressive
Bits/(Pixel*Frame)                       : 0.120
Stream size                              : 5.81 GiB (90%)
Default                                  : Yes
Forced                                   : No
Color range                              : Limited
Color primaries                          : BT.709
Transfer characteristics                 : BT.709
Matrix coefficients                      : BT.709

Audio
ID                                       : 2
Format                                   : E-AC-3
Format/Info                              : Enhanced Audio Coding 3
Codec ID                                 : A_EAC3
Duration                                 : 2 h 19 min
Bit rate mode                            : Constant
Bit rate                                 : 640 kb/s
Channel(s)                               : 6 channels
Channel positions                        : Front: L C R, Side: L R, LFE
Sampling rate                            : 48.0 kHz
Frame rate                               : 187.500 FPS (256 SPF)
Compression mode                         : Lossy
Stream size                              : 640 MiB (10%)
Title                                    : Hindi
Language                                 : Hindi
Service kind                             : Complete Main
Default                                  : No
Forced                                   : No

Text
ID                                       : 3
Format                                   : UTF-8
Codec ID                                 : S_TEXT/UTF8
Codec ID/Info                            : UTF-8 Plain Text
Duration                                 : 2 h 16 min
Bit rate                                 : 49 b/s
Count of elements                        : 2023
Stream size                              : 49.2 KiB (0%)
Default                                  : Yes
Forced                                   : No

Credit Goes to Lovepreet1 @ DTOne.



 :ss:







 :download:

Share this topic on FacebookShare this topic on GoogleShare this topic on MySpaceShare this topic on TwitterShare this topic on Yahoo

« Last Edit: January 12, 2019, 09:23:31 AM by Special26 »



Tags:
 

Related Topics

  Subject / Started by Replies Last post
3 Replies
781 Views
Last post January 24, 2014, 03:21:23 PM
by maniksinghal18
0 Replies
1124 Views
Last post June 21, 2017, 01:33:08 PM
by Nightfire
1 Replies
583 Views
Last post December 14, 2018, 07:00:47 AM
by Rusty
0 Replies
202 Views
Last post December 25, 2018, 09:59:25 AM
by Special26
1 Replies
282 Views
Last post January 13, 2019, 11:46:33 AM
by Tufail maken




Back to top